-=::Vampire Legend::=- Bob Marley Trade

    1980-09-20 Essex House Acoustic Set

    Share
    avatar
    vampire-legend
    Admin

    Сообщения : 277
    Дата регистрации : 2009-07-31
    Возраст : 29
    Откуда : Zion

    1980-09-20 Essex House Acoustic Set

    Post  vampire-legend on 2009-12-19, 4:39 pm

    Bob Marley
    Date: 1980.09.20
    Title: Essex House Acoustic Set
    Location: New York, USA
    Source: ?
    Lineage: ? > CD > wav > shn

    Tracklist
    1. Redemption Song (Take 1) 0:47
    2. Talking 0:14
    3. Redemption Song (Take 2) 1:00
    4. Tuning 0:41
    5. Redemption Song (Take 3) 1:11
    6. Redemption Song (Take 4) 4:12
    7. Redemption Song (Take 5) 2:46
    8. Redemption Song (Take 6) 6:39
    9. Interview 12:55
    10. Acoustic Jam 0:46
    11. Interview 2:06
    12. Coming In From The Cold 4:25
    13. Acoustic Jam / Interview 1:22
    14. Pray For Me 0:12
    15. Acoustic Jam / Interview 7:18
    Total 46m41s

    Notes
    Interviewer interrupts Bob during Pray For Me.
    Some digital skips on track 08.
    Comments/complaints to Frank W. <mailto:frank@sent.com>

    ----

    Wholefile checksums
    e2cb9f460eed3e31c87229eaec6f0340 *Track 01.shn
    c8b37cae3f93f0ec216d43972259982d *Track 02.shn
    c42eee98f20068d673e79decbc69559f *Track 03.shn
    71385ae003badd6a4c2bc553710aa187 *Track 04.shn
    0fff4e0f53d3eee043376a391e4ade6f *Track 05.shn
    41fcbf8f1a7ac29846eb77972dd135d6 *Track 06.shn
    86561ca2d8450730358aec4642e0cd9a *Track 07.shn
    eea5e845ff213a5c2c01231de1eb8327 *Track 08.shn
    b750f8390e1a5c04afd7284a3e80603f *Track 09.shn
    d24f7a14155658ef89c4f7c5bf153753 *Track 10.shn
    7424211d4fbb7ae7d2a10e361ed348c1 *Track 11.shn
    d1fcbf53b750b63e7e95f63bf92065c1 *Track 12.shn
    d1e30286718c4405c3a38c3545fdd589 *Track 13.shn
    73006f314f649ed2cd248abe5ebcd02c *Track 14.shn
    ec82f80b36f2138734b23d68e52a477d *Track 15.shn

    SHNtool checksums
    a1fe582916936f3cac715af1776474c0 [shntool] Track 01.shn
    b6a96ea84394b923ffe61a00b5ea76f1 [shntool] Track 02.shn
    814f51615af7a9f362aa97f7d296ea5e [shntool] Track 03.shn
    2bca020240c21c409a2bcf12134cd02d [shntool] Track 04.shn
    c9e2a50dc6eae7cfe480b3c8aa1c4f90 [shntool] Track 05.shn
    32e2618ecf21c648fe7304f990db25ef [shntool] Track 06.shn
    74421634c87ffb3c0fbbebbc3bcd479b [shntool] Track 07.shn
    1aea569cd1d1388950e85b45e1966dac [shntool] Track 08.shn
    4a1c9ce5474e3d40d418fefa49434702 [shntool] Track 09.shn
    4b05b7413b1d71676acb6d925ec12b59 [shntool] Track 10.shn
    6b6a8ca979fdaa017537cf28e2739ab5 [shntool] Track 11.shn
    86d696b0fad74a50fd241e78ef512d85 [shntool] Track 12.shn
    7730858d149a1ee2629df39e64a62b49 [shntool] Track 13.shn
    e397865fa0a223644ed6e4e2e122e91f [shntool] Track 14.shn
    d72f81c18ab32946f016cc23be4de4a3 [shntool] Track 15.shn

    ----

    SHNtool -len
    length expanded size cdr WAVE problems filename
    0:47.20 8337884 --- -- ---xx Track 01.shn
    0:14.19 2514332 --- -- ---xx Track 02.shn
    1:00.65 10736924 --- -- ---xx Track 03.shn
    0:41.61 7375916 --- -- ---xx Track 04.shn
    1:11.14 12557372 --- -- ---xx Track 05.shn
    4:12.57 44586908 --- -- ---xx Track 06.shn
    2:46.04 29291852 --- -- ---xx Track 07.shn
    6:39.04 70393052 --- -- ---xx Track 08.shn
    12:55.55 136839404 --- -- ---xx Track 09.shn
    0:46.60 8255564 --- -- ---xx Track 10.shn
    2:06.51 22346396 --- -- ---xx Track 11.shn
    4:25.30 46816604 --- -- ---xx Track 12.shn
    1:22.59 14603612 --- -- ---xx Track 13.shn
    0:12.10 2140364 --- -- ---xx Track 14.shn
    7:18.37 77350268 --- -- ---xx Track 15.shn
    46:41.21 494146452 B (totals for 15 files, 0.6012 overall compression ratio)

      Current date/time is 2018-07-21, 7:42 am